+ Reply to Thread
Results 1 to 1 of 1

Dear Zindagi 2016 720p x264 AC-3 5.1 Unt E-Sub - XMR

  1. #1
    kamran444 is offline
    Country:
    This Is kamran444's Country Flag

    Join Date
    Aug 2010
    Posts
    10,635
    Thanks
    34
    Thanked 1,619 Times in 933 Posts
    Rep Power
    219

    Dear Zindagi 2016 720p x264 AC-3 5.1 Unt E-Sub - XMR

    Dear Zindagi 2016 720p x264 AC-3 5.1 Unt E-Sub - XMR






    Format : Matroska
    Format version : Version 2
    File size : 1.46 GiB
    Duration : 2 h 30 min
    Overall bit rate : 1 397 kb/s


    Video
    ID : 1
    Format : AVC
    Format/Info : Advanced Video Codec
    Format profile : [email protected]
    Codec ID : V_MPEG4/ISO/AVC
    Duration : 2 h 30 min
    Bit rate : 950 kb/s
    Width : 1 280 pixels
    Height : 544 pixels
    Display aspect ratio : 2.35:1
    Frame rate mode : Constant
    Frame rate : 23.976 (24000/1001) FPS
    Color space : YUV
    Chroma subsampling : 4:2:0
    Bit depth : 8 bits
    Scan type : Progressive
    Bits/(Pixel*Frame) : 0.057
    Stream size : 1 017 MiB (68%)
    Title : [email protected]
    Default : Yes
    Forced : No

    Audio
    ID : 2
    Format : AC-3
    Format/Info : Audio Coding 3
    Mode extension : CM (complete main)
    Format settings, Endianness : Big
    Codec ID : A_AC3
    Duration : 2 h 30 min
    Bit rate mode : Constant
    Bit rate : 448 kb/s
    Channel(s) : 6 channels
    Channel positions : Front: L C R, Side: L R, LFE
    Sampling rate : 48.0 kHz
    Frame rate : 31.250 FPS (1536 spf)
    Bit depth : 16 bits
    Compression mode : Lossy
    Delay relative to video : 15 ms
    Stream size : 481 MiB (32%)
    Title : [email protected]
    Language : Hindi
    Default : Yes
    Forced : No

    Text
    ID : 3
    Format : UTF-8
    Codec ID : S_TEXT/UTF8
    Codec ID/Info : UTF-8 Plain Text
    Duration : 2 h 25 min
    Bit rate : 55 b/s
    Count of elements : 2028
    Stream size : 59.1 KiB (0%)
    Title : English
    Language : English
    Default : Yes
    Forced : No

     Dear Zindagi 2016 720p x264 AC-3 5.1 Unt E-Sub - XMR














    Single Link



     Dear Zindagi 2016 720p x264 AC-3 5.1 Unt E-Sub - XMR

     Dear Zindagi 2016 720p x264 AC-3 5.1 Unt E-Sub - XMR


     Dear Zindagi 2016 720p x264 AC-3 5.1 Unt E-Sub - XMR


    1GB Link


     Dear Zindagi 2016 720p x264 AC-3 5.1 Unt E-Sub - XMR

     Dear Zindagi 2016 720p x264 AC-3 5.1 Unt E-Sub - XMR


     Dear Zindagi 2016 720p x264 AC-3 5.1 Unt E-Sub - XMR
    Last edited by kamran444; 01-09-2017 at 09:10 AM.

+ Reply to Thread

Similar Threads

  1. Dear Zindagi (2016) - 720p - DVDRip - x264 - AC3 - ESub - [DDR]
    By Unicc_Supplier in forum Hindi Movies - DVDRips
    Replies: 2
    Last Post: 01-07-2017, 07:23 PM
  2. Dear Zindagi (2016) 720p DVDRip x264 AC3 ESub - DDR
    By legend10 in forum HD, DVD5, Upscaled, Blu-Ray Movies
    Replies: 0
    Last Post: 01-05-2017, 07:39 PM
  3. Dear Zindagi 2016 720p DVDRip x264 DD5 1-DDR
    By BollyCorner in forum HD, DVD5, Upscaled, Blu-Ray Movies
    Replies: 0
    Last Post: 01-05-2017, 03:15 PM
  4. Dear Zindagi (2016) 720p - 1.1GB
    By MSTelevisionHD in forum English Movies
    Replies: 0
    Last Post: 01-05-2017, 06:34 AM
  5. Dear Zindagi 2016 720p PreDvD x264 AC3 - DUS
    By kamran444 in forum Bollywood Latest Movies
    Replies: 0
    Last Post: 01-03-2017, 10:17 AM

Posting Permissions

  • You may not post new threads
  • You may not post replies
  • You may not post attachments
  • You may not edit your posts

Disclaimer: This site does not store any files on its server. All contents are provided by non-affiliated third parties.