Naam Hai Akira 2016 mini 720p Blu-Ray x264 AAC 5.1 ESub -DDR







Source: Blu-ray BD50 @ HDT

Format : Matroska
File size : 1.62 GiB
Duration : 2 h 16 min
Overall bit rate : 1 696 kb/s

Video
Format : AVC
Format/Info : Advanced Video Codec
Format profile : [email protected]
Format settings, CABAC : Yes
Format settings, ReFrames : 12 frames
Codec ID : V_MPEG4/ISO/AVC
Duration : 2 h 16 min
Bit rate : 1 500 kb/s
Width : 1 280 pixels
Height : 534 pixels
Display aspect ratio : 2.40:1
Frame rate mode : Constant
Frame rate : 24.000 FPS
Color space : YUV
Chroma subsampling : 4:2:0
Bit depth : 8 bits
Scan type : Progressive
Bits/(Pixel*Frame) : 0.091
Stream size : 1.43 GiB (88%)
Default : Yes
Forced : No
Color range : Limited
Color primaries : BT.709
Transfer characteristics : BT.709
Matrix coefficients : BT.709

Audio #1
Format : AAC
Format/Info : Advanced Audio Codec
Format profile : LC
Codec ID : A_AAC
Duration : 2 h 16 min
Bit rate : 192 kb/s
Channel(s) : 6 channels
Channel positions : Front: L C R, Side: L R, LFE
Sampling rate : 48.0 kHz
Frame rate : 46.875 FPS (1024 spf)
Compression mode : Lossy
Delay relative to video : 9 ms
Stream size : 188 MiB (11%)
Language : Hindi
Default : Yes
Forced : No

















Single Link



 Naam Hai Akira 2016 mini 720p Blu-Ray x264 AAC 5.1 ESub -DDR

 Naam Hai Akira 2016 mini 720p Blu-Ray x264 AAC 5.1 ESub -DDR

 Naam Hai Akira 2016 mini 720p Blu-Ray x264 AAC 5.1 ESub -DDR

1GB Link



 Naam Hai Akira 2016 mini 720p Blu-Ray x264 AAC 5.1 ESub -DDR


 Naam Hai Akira 2016 mini 720p Blu-Ray x264 AAC 5.1 ESub -DDR

 Naam Hai Akira 2016 mini 720p Blu-Ray x264 AAC 5.1 ESub -DDR