Format : Matroska
Format version : Version 4 / Version 2
File size : 503 MiB
Duration : 44 min 0 s
Overall bit rate : 1 597 kb/s
Movie name : Downloaded From -> S.S
Encoded date : UTC 2016-11-27 08:16:00
Writing application : mkvmerge v8.2.0 ('World of Adventure') 64bit
Writing library : libebml v1.3.1 + libmatroska v1.4.2

Video
ID : 1
Format : AVC
Format/Info : Advanced Video Codec
Format profile : [email protected]
Format settings, CABAC : Yes
Format settings, ReFrames : 4 frames
Codec ID : V_MPEG4/ISO/AVC
Duration : 44 min 0 s
Bit rate : 1 500 kb/s
Width : 1 280 pixels
Height : 720 pixels
Display aspect ratio : 16:9
Frame rate mode : Constant
Frame rate : 25.000 FPS
Color space : YUV
Chroma subsampling : 4:2:0
Bit depth : 8 bits
Scan type : Progressive
Bits/(Pixel*Frame) : 0.065
Stream size : 462 MiB (92%)
Title : Downloaded From -> S.S
Forced : No

Audio
ID : 2
Format : AAC
Format/Info : Advanced Audio Codec
Format profile : LC
Codec ID : A_AAC
Duration : 44 min 0 s
Bit rate : 128 kb/s
Channel(s) : 2 channels
Channel positions : Front: L R
Sampling rate : 44.1 kHz
Frame rate : 43.066 FPS (1024 spf)
Compression mode : Lossy
Delay relative to video : -80 ms
Stream size : 40.3 MiB (8%)
Title : Downloaded From -> S.S
Default : Yes
Forced : No










Watch Online


Watch Naagin 2016 Season Ep15 720p WEB x264 AAC mkv

Watch Naagin 2016 Season Ep15 720p WEB x264 AAC mkv

Watch Naagin 2016 Season Ep15 720p WEB x264 AAC mkv


Single link


http://uptobox.com/yqmbr293f5jz

http://clicknupload.link/0u2g36fpppho

http://bdupload.info/n0m6qg1u9vd0

Download Naagin 2016 Season Ep15 720p WEB x264 AAC mkv