Star Screen Awards 2016 Untouched 1080p WEB-DL x264 AAC - HHD









Format : Matroska
Format version : Version 4 / Version 2
File size : 4.79 GiB
Duration : 2h 34mn
Overall bit rate : 4 429 Kbps


Video
ID : 1
Format : AVC
Format/Info : Advanced Video Codec
Format profile : [email protected]
Format settings, CABAC : Yes
Format settings, ReFrames : 1 frame
Format settings, GOP : M=1, N=25
Codec ID : V_MPEG4/ISO/AVC
Duration : 2h 34mn
Bit rate mode : Constant
Bit rate : 4 500 Kbps
Width : 1 920 pixels
Height : 1 080 pixels
Display aspect ratio : 16:9
Frame rate mode : Constant
Frame rate : 25.000 fps
Color space : YUV
Chroma subsampling : 4:2:0
Bit depth : 8 bits
Scan type : Progressive
Bits/(Pixel*Frame) : 0.087
Stream size : 4.72 GiB (99%)
Default : Yes
Forced : No

Audio
ID : 2
Format : AAC
Format/Info : Advanced Audio Codec
Format profile : LC
Codec ID : A_AAC
Duration : 2h 34mn
Bit rate : 61.4 Kbps
Channel(s) : 2 channels
Channel positions : Front: L R
Sampling rate : 48.0 KHz
Frame rate : 46.875 fps (1024 spf)
Compression mode : Lossy
Stream size : 67.9 MiB (1%)
Default : Yes
Forced : No


















Party of Salman Khan

 Star Screen Awards 2016 Untouched 1080p WEB-DL x264 AAC - HHD


 Star Screen Awards 2016 Untouched 1080p WEB-DL x264 AAC - HHD



 Star Screen Awards 2016 Untouched 1080p WEB-DL x264 AAC - HHD


Single Link Star Screen Awards

 Star Screen Awards 2016 Untouched 1080p WEB-DL x264 AAC - HHD


 Star Screen Awards 2016 Untouched 1080p WEB-DL x264 AAC - HHD




 Star Screen Awards 2016 Untouched 1080p WEB-DL x264 AAC - HHD
 Star Screen Awards 2016 Untouched 1080p WEB-DL x264 AAC - HHD

 Star Screen Awards 2016 Untouched 1080p WEB-DL x264 AAC - HHD